"Fossies" - the Fresh Open Source Software Archive

Member "ffmpeg-4.0.1/tests/ref/fate/8bps" (13 Apr 2018, 2252 Bytes) of package /linux/misc/ffmpeg-4.0.1.tar.xz:


As a special service "Fossies" has tried to format the requested text file into HTML format (style: standard) with prefixed line numbers. Alternatively you can here view or download the uninterpreted source code file.

    1 #tb 0: 2/25
    2 #media_type 0: video
    3 #codec_id 0: rawvideo
    4 #dimensions 0: 360x240
    5 #sar 0: 9/10
    6 #tb 1: 1/22050
    7 #media_type 1: audio
    8 #codec_id 1: pcm_s16le
    9 #sample_rate 1: 22050
   10 #channel_layout 1: 4
   11 #channel_layout_name 1: mono
   12 0,          0,          0,        1,   259200, 0x7e91df07
   13 1,          0,          0,     1024,     2048, 0x3d042426
   14 1,       1024,       1024,     1024,     2048, 0x5bcae456
   15 0,          1,          1,        1,   259200, 0x7e91df07
   16 1,       2048,       2048,     1024,     2048, 0xb6043655
   17 1,       3072,       3072,     1024,     2048, 0x6fdaffad
   18 0,          2,          2,        1,   259200, 0xc468c119
   19 1,       4096,       4096,     1024,     2048, 0xf86700cb
   20 1,       5120,       5120,     1024,     2048, 0x045e46c1
   21 0,          3,          3,        1,   259200, 0x0e058930
   22 1,       6144,       6144,     1024,     2048, 0x000df0e5
   23 0,          4,          4,        1,   259200, 0xa0261310
   24 1,       7168,       7168,     1024,     2048, 0x8f5f12fb
   25 1,       8192,       8192,     1024,     2048, 0xd516f6b0
   26 0,          5,          5,        1,   259200, 0x78ca9aba
   27 1,       9216,       9216,     1024,     2048, 0xa1fe2bd3
   28 1,      10240,      10240,     1024,     2048, 0x3647087a
   29 0,          6,          6,        1,   259200, 0x4971f7b3
   30 1,      11264,      11264,     1024,     2048, 0xd2ee584e
   31 1,      12288,      12288,     1024,     2048, 0xf132088c
   32 0,          7,          7,        1,   259200, 0x7dc2cff7
   33 1,      13312,      13312,     1024,     2048, 0x1efc0eb1
   34 0,          8,          8,        1,   259200, 0x8cbc53d5
   35 1,      14336,      14336,     1024,     2048, 0xeb73f402
   36 1,      15360,      15360,     1024,     2048, 0x75cb3d20
   37 0,          9,          9,        1,   259200, 0xcccd77e3
   38 1,      16384,      16384,     1024,     2048, 0x85a501b6
   39 1,      17408,      17408,     1024,     2048, 0xa4eb312d
   40 0,         10,         10,        1,   259200, 0x6b3e0fb3
   41 1,      18432,      18432,     1024,     2048, 0xf0aaf8c7
   42 0,         11,         11,        1,   259200, 0x281dd175
   43 1,      19456,      19456,     1024,     2048, 0x65371cda
   44 1,      20480,      20480,     1024,     2048, 0x25512cd6
   45 1,      21504,      21504,     1024,     2048, 0xc81410e3
   46 1,      22528,      22528,      257,      514, 0x57d77b94