"Fossies" - the Fresh Open Source Software Archive

Member "ffmpeg-4.0.1/tests/ref/fate/4xm-2" (13 Apr 2018, 10182 Bytes) of package /linux/misc/ffmpeg-4.0.1.tar.xz:


As a special service "Fossies" has tried to format the requested text file into HTML format (style: standard) with prefixed line numbers. Alternatively you can here view or download the uninterpreted source code file.

    1 #tb 0: 4/25
    2 #media_type 0: video
    3 #codec_id 0: rawvideo
    4 #dimensions 0: 240x112
    5 #sar 0: 0/1
    6 0,          0,          0,        1,    80640, 0x00000000
    7 0,          1,          1,        1,    80640, 0x3a942680
    8 0,          2,          2,        1,    80640, 0x3a942680
    9 0,          3,          3,        1,    80640, 0x3a942680
   10 0,          4,          4,        1,    80640, 0x3a942680
   11 0,          5,          5,        1,    80640, 0x3a942680
   12 0,          6,          6,        1,    80640, 0x3a942680
   13 0,          7,          7,        1,    80640, 0xa731901a
   14 0,          8,          8,        1,    80640, 0x0a1e5b3d
   15 0,          9,          9,        1,    80640, 0x2c66418f
   16 0,         10,         10,        1,    80640, 0xaaf8575a
   17 0,         11,         11,        1,    80640, 0x2d1a60b1
   18 0,         12,         12,        1,    80640, 0x646d6e66
   19 0,         13,         13,        1,    80640, 0x090de107
   20 0,         14,         14,        1,    80640, 0x90991f6c
   21 0,         15,         15,        1,    80640, 0xda862969
   22 0,         16,         16,        1,    80640, 0x5434e1ec
   23 0,         17,         17,        1,    80640, 0x4e981ce7
   24 0,         18,         18,        1,    80640, 0x97eb4000
   25 0,         19,         19,        1,    80640, 0xbfb375b0
   26 0,         20,         20,        1,    80640, 0x1529d95d
   27 0,         21,         21,        1,    80640, 0x2c0015af
   28 0,         22,         22,        1,    80640, 0x63779ce1
   29 0,         23,         23,        1,    80640, 0x3f2b3949
   30 0,         24,         24,        1,    80640, 0xe3cf3be4
   31 0,         25,         25,        1,    80640, 0x54451a22
   32 0,         26,         26,        1,    80640, 0xc2901d91
   33 0,         27,         27,        1,    80640, 0x312f8b7e
   34 0,         28,         28,        1,    80640, 0x99734f4e
   35 0,         29,         29,        1,    80640, 0xe50b8391
   36 0,         30,         30,        1,    80640, 0x7c6b04e4
   37 0,         31,         31,        1,    80640, 0x04989996
   38 0,         32,         32,        1,    80640, 0x30c3c00f
   39 0,         33,         33,        1,    80640, 0x77172ba4
   40 0,         34,         34,        1,    80640, 0x1257a596
   41 0,         35,         35,        1,    80640, 0x657e5fa8
   42 0,         36,         36,        1,    80640, 0xe66958ef
   43 0,         37,         37,        1,    80640, 0xbf7f4f0a
   44 0,         38,         38,        1,    80640, 0x588ac70e
   45 0,         39,         39,        1,    80640, 0xb1a91c4b
   46 0,         40,         40,        1,    80640, 0x5b73de24
   47 0,         41,         41,        1,    80640, 0xa3c15e73
   48 0,         42,         42,        1,    80640, 0x7326196b
   49 0,         43,         43,        1,    80640, 0x1aa52b88
   50 0,         44,         44,        1,    80640, 0x0029f511
   51 0,         45,         45,        1,    80640, 0x2398433a
   52 0,         46,         46,        1,    80640, 0xef9ab870
   53 0,         47,         47,        1,    80640, 0xb1ac9b79
   54 0,         48,         48,        1,    80640, 0x1cc2ab3b
   55 0,         49,         49,        1,    80640, 0x41362b53
   56 0,         50,         50,        1,    80640, 0x81e33811
   57 0,         51,         51,        1,    80640, 0x621d285a
   58 0,         52,         52,        1,    80640, 0x84e84c24
   59 0,         53,         53,        1,    80640, 0xbb8c2939
   60 0,         54,         54,        1,    80640, 0x6c6905a8
   61 0,         55,         55,        1,    80640, 0xc60bbaf0
   62 0,         56,         56,        1,    80640, 0xc80d08c8
   63 0,         57,         57,        1,    80640, 0xc5646343
   64 0,         58,         58,        1,    80640, 0x3df7a287
   65 0,         59,         59,        1,    80640, 0x628e9f78
   66 0,         60,         60,        1,    80640, 0x58f93044
   67 0,         61,         61,        1,    80640, 0x8ee3a59f
   68 0,         62,         62,        1,    80640, 0xaa297416
   69 0,         63,         63,        1,    80640, 0x7bbd7307
   70 0,         64,         64,        1,    80640, 0x12dbee42
   71 0,         65,         65,        1,    80640, 0xaea5fb22
   72 0,         66,         66,        1,    80640, 0x9405fd0b
   73 0,         67,         67,        1,    80640, 0x59400b6f
   74 0,         68,         68,        1,    80640, 0x70beeba0
   75 0,         69,         69,        1,    80640, 0xdc0681ae
   76 0,         70,         70,        1,    80640, 0xe4a3c803
   77 0,         71,         71,        1,    80640, 0x3424c568
   78 0,         72,         72,        1,    80640, 0xeb72838d
   79 0,         73,         73,        1,    80640, 0x671fbff3
   80 0,         74,         74,        1,    80640, 0xa4b849bd
   81 0,         75,         75,        1,    80640, 0xf4c2be6f
   82 0,         76,         76,        1,    80640, 0xb91988fd
   83 0,         77,         77,        1,    80640, 0xd0e5bf3a
   84 0,         78,         78,        1,    80640, 0x78c2b0bc
   85 0,         79,         79,        1,    80640, 0xcf2deb74
   86 0,         80,         80,        1,    80640, 0x84a9081b
   87 0,         81,         81,        1,    80640, 0x9931e9b1
   88 0,         82,         82,        1,    80640, 0x1ce6b59d
   89 0,         83,         83,        1,    80640, 0x24a31152
   90 0,         84,         84,        1,    80640, 0x206f4677
   91 0,         85,         85,        1,    80640, 0x507755ab
   92 0,         86,         86,        1,    80640, 0xc4b5643a
   93 0,         87,         87,        1,    80640, 0x197445f7
   94 0,         88,         88,        1,    80640, 0x53232d2a
   95 0,         89,         89,        1,    80640, 0x33ae27d4
   96 0,         90,         90,        1,    80640, 0x77bb2925
   97 0,         91,         91,        1,    80640, 0xb0d53220
   98 0,         92,         92,        1,    80640, 0xacdb26fc
   99 0,         93,         93,        1,    80640, 0xa83d32e1
  100 0,         94,         94,        1,    80640, 0xe2002717
  101 0,         95,         95,        1,    80640, 0xb1722fed
  102 0,         96,         96,        1,    80640, 0xa7de3206
  103 0,         97,         97,        1,    80640, 0x68f94780
  104 0,         98,         98,        1,    80640, 0x2bcc2f28
  105 0,         99,         99,        1,    80640, 0xaf9354e5
  106 0,        100,        100,        1,    80640, 0x45b4375c
  107 0,        101,        101,        1,    80640, 0x60e043ee
  108 0,        102,        102,        1,    80640, 0x9ed5411e
  109 0,        103,        103,        1,    80640, 0xbae131ce
  110 0,        104,        104,        1,    80640, 0x33be2be6
  111 0,        105,        105,        1,    80640, 0xdadb3a4c
  112 0,        106,        106,        1,    80640, 0xe9e72559
  113 0,        107,        107,        1,    80640, 0x9fe93f8c
  114 0,        108,        108,        1,    80640, 0xc20b413a
  115 0,        109,        109,        1,    80640, 0x02c74699
  116 0,        110,        110,        1,    80640, 0x1b284634
  117 0,        111,        111,        1,    80640, 0xb7ea559e
  118 0,        112,        112,        1,    80640, 0x62e3b0e1
  119 0,        113,        113,        1,    80640, 0x8b6bbf68
  120 0,        114,        114,        1,    80640, 0x04d2e8d8
  121 0,        115,        115,        1,    80640, 0xc6961955
  122 0,        116,        116,        1,    80640, 0xf318e461
  123 0,        117,        117,        1,    80640, 0x55231e8f
  124 0,        118,        118,        1,    80640, 0x772f325e
  125 0,        119,        119,        1,    80640, 0x31480120
  126 0,        120,        120,        1,    80640, 0x5eda30fe
  127 0,        121,        121,        1,    80640, 0x5c534632
  128 0,        122,        122,        1,    80640, 0xaca0f5c9
  129 0,        123,        123,        1,    80640, 0x9ec83b5a
  130 0,        124,        124,        1,    80640, 0x65944233
  131 0,        125,        125,        1,    80640, 0xbf7e15f0
  132 0,        126,        126,        1,    80640, 0xf985f9b7
  133 0,        127,        127,        1,    80640, 0x0e7a0887
  134 0,        128,        128,        1,    80640, 0xee33931b
  135 0,        129,        129,        1,    80640, 0xea6b92f8
  136 0,        130,        130,        1,    80640, 0xde559025
  137 0,        131,        131,        1,    80640, 0x970c9af6
  138 0,        132,        132,        1,    80640, 0x6a579d8a
  139 0,        133,        133,        1,    80640, 0x7053ac0c
  140 0,        134,        134,        1,    80640, 0x6d6ca81b
  141 0,        135,        135,        1,    80640, 0x6ffdb338
  142 0,        136,        136,        1,    80640, 0x402f953f
  143 0,        137,        137,        1,    80640, 0x24358c04
  144 0,        138,        138,        1,    80640, 0x26298a25
  145 0,        139,        139,        1,    80640, 0xbc0487e7
  146 0,        140,        140,        1,    80640, 0xf8c885fd
  147 0,        141,        141,        1,    80640, 0x98a79695
  148 0,        142,        142,        1,    80640, 0x846aa04b
  149 0,        143,        143,        1,    80640, 0x22ba919b
  150 0,        144,        144,        1,    80640, 0xcba08a11
  151 0,        145,        145,        1,    80640, 0xfba0836c
  152 0,        146,        146,        1,    80640, 0xb7ff8059
  153 0,        147,        147,        1,    80640, 0xb15080bb
  154 0,        148,        148,        1,    80640, 0x42627aed
  155 0,        149,        149,        1,    80640, 0xd045d485
  156 0,        150,        150,        1,    80640, 0xf22e7545
  157 0,        151,        151,        1,    80640, 0xe24a41fc
  158 0,        152,        152,        1,    80640, 0x854696ac
  159 0,        153,        153,        1,    80640, 0x6722f8f2
  160 0,        154,        154,        1,    80640, 0x00000000
  161 0,        155,        155,        1,    80640, 0x0f412500
  162 0,        156,        156,        1,    80640, 0x0f412500
  163 0,        157,        157,        1,    80640, 0x0f412500
  164 0,        158,        158,        1,    80640, 0xb6634270
  165 0,        159,        159,        1,    80640, 0x9e43a4a0
  166 0,        160,        160,        1,    80640, 0x136ab60b
  167 0,        161,        161,        1,    80640, 0xe43625dc
  168 0,        162,        162,        1,    80640, 0xc2eb0f8c
  169 0,        163,        163,        1,    80640, 0x99af167d
  170 0,        164,        164,        1,    80640, 0xd9cb0a37
  171 0,        165,        165,        1,    80640, 0x1f2cf2ce
  172 0,        166,        166,        1,    80640, 0x00eeae7f
  173 0,        167,        167,        1,    80640, 0xcc1d666c
  174 0,        168,        168,        1,    80640, 0x77d6fcc9
  175 0,        169,        169,        1,    80640, 0x58c8acc6
  176 0,        170,        170,        1,    80640, 0xd026238d
  177 0,        171,        171,        1,    80640, 0xfefb6c9b
  178 0,        172,        172,        1,    80640, 0xa9a5cb36
  179 0,        173,        173,        1,    80640, 0xc845f000