"Fossies" - the Fresh Open Source Software Archive

Member "ffmpeg-4.0.1/tests/ref/fate/4xm-1" (13 Apr 2018, 960 Bytes) of package /linux/misc/ffmpeg-4.0.1.tar.xz:


As a special service "Fossies" has tried to format the requested text file into HTML format (style: standard) with prefixed line numbers. Alternatively you can here view or download the uninterpreted source code file.

    1 #tb 0: 1/15
    2 #media_type 0: video
    3 #codec_id 0: rawvideo
    4 #dimensions 0: 640x480
    5 #sar 0: 0/1
    6 0,          0,          0,        1,   921600, 0xd82e4d57
    7 0,          1,          1,        1,   921600, 0x83f2349c
    8 0,          2,          2,        1,   921600, 0x70d87db0
    9 0,          3,          3,        1,   921600, 0x66d27b93
   10 0,          4,          4,        1,   921600, 0xb730941c
   11 0,          5,          5,        1,   921600, 0x15da4934
   12 0,          6,          6,        1,   921600, 0x1953968a
   13 0,          7,          7,        1,   921600, 0xf0d730a0
   14 0,          8,          8,        1,   921600, 0x35a7d30c
   15 0,          9,          9,        1,   921600, 0x33667f62
   16 0,         10,         10,        1,   921600, 0xf4707f6b
   17 0,         11,         11,        1,   921600, 0xaac6c392
   18 0,         12,         12,        1,   921600, 0x68397d16
   19 0,         13,         13,        1,   921600, 0xb2aa0450
   20 0,         14,         14,        1,   921600, 0xba25c62e